topgood
一派掌门

[更 早] [欧美] [动作] [BD-1080P] 门徒 The.Protege.2021.1080p.US.BluRay.x264.TrueHD.7.1.Atmos-MT 13.17GB

-->

帖子完整标题:门徒 The.Protege.2021.1080p.US.BluRay.x264.TrueHD.7.1.Atmos-MT 13.17GB



◎译  名 门徒/The Asset/The Protege/刺客密令(台)/复仇杀姬(港)/有价之人/资产
◎片  名 The Protégé
◎年  代 2021
◎产  地 美国
◎类  别 动作 / 惊悚 / 犯罪
◎语  言 英语
◎上映日期 2021-08-20(美国)
◎豆瓣评分 5.7/10 from 3352 users
◎豆瓣链接 https://movie.douban.com/subject/34881663/
◎片  长 109分钟
◎导  演 马丁·坎贝尔 Martin Campbell
◎编  剧 理查德·温克 Richard Wenk
◎主  演 李美琪 Maggie Q
      迈克尔·基顿 Michael Keaton
      塞缪尔·杰克逊 Samuel L. Jackson
      大卫·瑞托 David Rintoul
      帕特里克·麦拉海德 Patrick Malahide
      雷·费隆 Ray Fearon
      奥利·普费弗 Ori Pfeffer
      罗伯特·帕特里克 Robert Patrick
      小弗洛林·皮尔斯齐 Florin Piersic Jr.
      杜铎·奇里拉 Tudor Chirila
      沃利扎·比尼夫 Velizar Binev
      乔治·皮斯特拉努 George Pistereanu
      伊娃·努金·索森 Eva Nugyen Thorsen
      亚历克斯·博尔达 Alex Bordea
      塔尼娅·凯勒 Tanja Keller
      塔伊·阿特沃尔 Taj Atwal
      卡罗琳·朗奎 Caroline Loncq
      丽琪达·卡里 Richenda Carey
      大卫·斯特恩 David Sterne
      杰克·德格斯 Jack Derges
      唐·迈克尔·保罗 Don Michael Paul
      叶卡捷琳娜·贝克 Ekaterina Baker

◎标  签 动作 | 杀手 | 美国 | 犯罪 | 2021 | 女性 | 惊悚 | 剧情

◎简  介

  故事围绕伦勃朗(基顿饰)和安娜(李美琪饰)展开,这两个世界上最顶级的杀手将揭露一段发生在越南的神秘往事。多年来,他们游遍全球来互相争夺最抢手的合同。但当安娜的导师穆迪(杰克逊饰)被谋杀时,她和伦勃朗必须结盟,返回越南追捕凶手。

Video
ID : 1
Format : AVC
Format/Info : Advanced Video Codec
Format profile : [email protected]
Format settings : CABAC / 5 Ref Frames
Format settings, CABAC : Yes
Format settings, Reference frames : 5 frames
Codec ID : V_MPEG4/ISO/AVC
Duration : 1 h 48 min
Bit rate : 12.4 Mb/s
Width : 1 920 pixels
Height : 802 pixels
Display aspect ratio : 2.40:1
Frame rate mode : Constant
Frame rate : 23.976 (24000/1001/189150) FPS
Color space : YUV
Chroma subsampling : 4:2:0
Bit depth : 8 bits
Scan type : Progressive
Bits/(Pixel*Frame) : 0.335
Stream size : 9.40 GiB (71%)
Writing library : x264 core 157 r2938 2b00a84 [email protected] Mod
Encoding settings : cabac=1 / ref=5 / deblock=1:-3:-3 / analyse=0x3:0x133 / me=umh / subme=10 / psy=1 / psy_rd=1.05:0.00 / mixed_ref=1 / me_range=32 / chroma_me=1 / trellis=2 / 8x8dct=1 / cqm=0 / deadzone=21,11 / fast_pskip=0 / chroma_qp_offset=-2 / threads=12 / lookahead_threads=2 / sliced_threads=0 / nr=0 / decimate=0 / interlaced=0 / bluray_compat=0 / constrained_intra=0 / bframes=8 / b_pyramid=2 / b_adapt=2 / b_bias=0 / direct=3 / weightb=1 / open_gop=0 / weightp=2 / keyint=250 / keyint_min=24 / scenecut=40 / intra_refresh=0 / rc_lookahead=250 / rc=crf / mbtree=0 / crf=16.8 / qcomp=0.60 / qpmin=0 / qpmax=69 / qpstep=4 / vbv_maxrate=62500 / vbv_bufsize=78125 / crf_max=0.0 / nal_hrd=none / filler=0 / ip_ratio=1.30 / pb_ratio=1.20 / aq=3:0.80
Language : English
Default : Yes
Forced : No
Color range : Limited
Color primaries : BT.709
Matrix coefficients : BT.709

Audio #1
ID : 2
Format : MLP FBA 16-ch
Format/Info : Meridian Lossless Packing FBA with 16-channel presentation
Commercial name : Dolby TrueHD with Dolby Atmos
Codec ID : A_TRUEHD
Duration : 1 h 48 min
Bit rate mode : Variable
Bit rate : 4 232 kb/s
Maximum bit rate : 8 016 kb/s
Channel(s) : 8 channels
Channel layout : L R C LFE Ls Rs Lb Rb
Sampling rate : 48.0 kHz
Frame rate : 1 200.000 FPS (40 SPF)
Compression mode : Lossless
Stream size : 3.22 GiB (24%)
Language : English
Default : Yes
Forced : No
Number of dynamic objects : 11
Bed channel count : 1 channel
Bed channel configuration : LFE

Audio #2
ID : 3
Format : AC-3
Format/Info : Audio Coding 3
Commercial name : Dolby Digital
Codec ID : A_AC3
Duration : 1 h 48 min
Bit rate mode : Constant
Bit rate : 640 kb/s
Channel(s) : 6 channels
Channel layout : L R C LFE Ls Rs
Sampling rate : 48.0 kHz
Frame rate : 31.250 FPS (1536 SPF)
Compression mode : Lossy
Stream size : 498 MiB (4%)
Language : English
Service kind : Complete Main
Default : No
Forced : No

Text #1
ID : 4
Format : UTF-8
Codec ID : S_TEXT/UTF8
Codec ID/Info : UTF-8 Plain Text
Duration : 1 h 36 min
Bit rate : 36 b/s
Count of elements : 786
Stream size : 26.2 KiB (0%)
Title : SRT
Language : English
Default : Yes
Forced : No

Text #2
ID : 5
Format : PGS
Muxing mode : zlib
Codec ID : S_HDMV/PGS
Codec ID/Info : Picture based subtitle format used on BDs/HD-DVDs
Duration : 1 h 39 min
Bit rate : 29.1 kb/s
Count of elements : 1950
Stream size : 20.7 MiB (0%)
Language : English
Default : No
Forced : No

Menu
00:00:00.000 : Chapter 01
00:03:42.848 : Chapter 02
00:11:16.301 : Chapter 03
00:20:44.285 : Chapter 04
00:25:32.489 : Chapter 05
00:31:32.474 : Chapter 06
00:37:53.771 : Chapter 07
00:46:41.632 : Chapter 08
00:51:49.315 : Chapter 09
00:54:49.620 : Chapter 10
00:59:55.926 : Chapter 11
01:05:41.271 : Chapter 12
01:12:48.739 : Chapter 13
01:18:25.993 : Chapter 14
01:25:31.293 : Chapter 15
01:34:57.817 : Chapter 16





1 个附件 售价 大小 下载 时间

The.Protege.2021.1080p.US.BluRay.x264.TrueHD.7.1.Atmos-MT.torrent 0 金币 17.10K 1498 次 2天前

#1楼
发帖时间:2021-10-14 09:10:51   |   回复数:1
liyouchai
隐世仙人♂
谢谢楼主分享资源
2天前 #2楼
游客组